Все для ферм / Мы миллеры скачать торрент mp4

Мы – Миллеры / We're the Millers

Фильм Мы – Миллеры / We're the Millers скачать бесплатно в професcиональной озвучке или посмотреть онлайн, чтобы начать просмотр нужно нажать на кнопку в плеере и спустя несколько секунд воспроизведение фильма начнется в хорошем HD (High-Definition) качестве 720p или 1080p. Напомним, что посмотреть онлайн вы можете не только на компьютере, но и на андроид (Android), iPhone и iPad. Приятного просмотра!

Мы миллеры скачать торрент mp4 I

Мы – Миллеры / We're the Millers скачать бесплатно или смотреть онлайн

Дэвид Берк - мелкий торговец наркотиками. Среди его клиентов - повара и скучающие домохозяйки. Детям он наркотики не продаёт и поэтому считает себя принципиальным человеком. Дэвид действительно хорошо относится к детям, но это не остается безнаказанным - он пытается помочь подросткам, попавшим в беду, и на него нападают хулиганы-панки. Они отбирают у него наркотики и деньги, и наш герой оказывается в отчаянном положении. Ведь ему нечем расплатиться с его поставщиком Брэдом. Единственный выход - подрядиться на доставку крупной партии наркотиков через границу.

Возраст: зрителям, достигшим 16 лет
Продолжительность: 110 мин. / 01:50

Слоган: "Если что, мы - Миллеры"
Роли дублировали: Людмила Шувалова, Денис Беспалый, Мария Иващенко, Прохор Чеховской, Андрей Казанцев
Сценарий: Боб Фишер, Шон Андерс, Стив Фабер
Продюсер: Такер Тули, Винсент Ньюман, Крис Бендер
Оператор: Бэрри Петерсон
Композитор: Теодор Шапиро, Людвиг Горанссон
Художник: Шэй Канлифф, Эллиотт Глик, Клэйтон Хартли
Монтаж: Майкл Л. Сейл
Студия: BenderSpink, New Line Cinema, Vincent Newman Entertainment
Бюджет: $37 000 000
Сборы в США: $150 394 119
Сборы в мире: + $119 600 000 = $269 994 119
Сборы в России: $18 027 113

Премьера (мир): 3 августа 2013
Премьера (РФ): 15 августа 2013, "Каро-Премьер"

Релиз на DVD: 19 декабря 2013, "CP Дистрибуция"
Релиз на Blu-Ray: 16 января 2014, "CP Дистрибуция"

Зрители: США - 18.5 млн, Россия - 2.7 млн, Великобритания - 1.31 млн
Рейтинг MPAA: лицам до 17 лет обязательно присутствие взрослого

На нашем сайте имеется возможность смотреть фильмы онлайн в HD (High-Definition) качестве, для этого воспользуйтесь переключателем качества видео в нижнем правом углу плеера. Обратите внимание на то, что чем выше будет качество видео, тем больше времени будет занимать загрузка видео и увеличится количество передаваемого трафика.

Мы миллеры скачать торрент mp4 II

Дата Название раздачи (ссылка) Размер Скачали
4 февраля 2016 12:17 Мы – Миллеры / Were the Millers (2013) BDRip 1080p | Theatrical Cut.torrent
7,76 Gb 22 4 февраля 2016 12:17 Мы – Миллеры / Were the Millers (2013) HDRip от MediaClub | КПК | Расширенная версия.torrent 534,12 Mb 12 4 февраля 2016 12:17 Мы – Миллеры / Were the Millers (2013) HDRip-AVC от Leo.pard | Theatrical Cut | D.torrent 745,09 Mb 29 4 февраля 2016 12:17 Мы – Миллеры / Were the Millers (2013) BDRip 1080p от Leonardo and Scarabey | Theatrical Cut | Лицензия.torrent 7,31 Gb 6 4 февраля 2016 12:16 Мы – Миллеры / Were the Millers (2013) DVD5.torrent

4485 Кбит/сек
Аудио 1: AC3 5.1, 448 Кбит/сек [Русский - дублированный]
Аудио 2: AC3 5.1, 448 Кбит/сек [Английский - оригинал]
Видео: Идентификатор : 224 (0xE0) Формат : MPEG Video Версия формата : Version 2 Профиль формата : [email protected] Параметр BVOP формата : Да Параметр матрицы формата : Выборочная Параметр GOP формата : Variable Продолжительность : 26 м. Вид битрейта : Переменный Битрейт : 4485 Кбит/сек Максимальный битрейт : 8900 Кбит/сек Ширина : 720 пикселей Высота : 480 пикселей Соотношение сторон : 16:9 Частота кадров : 23,976 кадра/сек Стандарт вещания : NTSC Цветовое пространство : YUV Субдискретизация насыщенности : 4:2:0 Битовая глубина : 8 бит Тип развёртки : Прогрессивная Порядок развёртки : 2:3 Pulldown Метод сжатия : С потерями Бит/(Пиксели*Кадры) : 0.541 Временной код первого кадра : 00:00:00:00 Оригинал временного кода : Group of pictures header Размер потока : 836 Мбайт (82%)
Аудио #1: Идентификатор : 189 (0xBD)-128 (0x80) Формат : AC-3 Формат/Информация : Audio Coding 3 Расширение режима : CM (complete main) Параметр Endianness формата : Big Режим смешивания : DVD-Video Продолжительность : 26 м. Вид битрейта : Постоянный Битрейт : 448 Кбит/сек Каналы : 6 каналов Расположение каналов : Front: L C R, Side: L R, LFE Частота : 48,0 КГц Битовая глубина : 16 бит Метод сжатия : С потерями Размер потока : 83,5 Мбайт (8%)
Аудио #2: Идентификатор : 189 (0xBD)-129 (0x81) Формат : AC-3 Формат/Информация : Audio Coding 3 Расширение режима : CM (complete main) Параметр Endianness формата : Big Режим смешивания : DVD-Video Продолжительность : 26 м. Вид битрейта : Постоянный Битрейт : 448 Кбит/сек Каналы : 6 каналов Расположение каналов : Front: L C R, Side: L R, LFE Частота : 48,0 КГц Битовая глубина : 16 бит Метод сжатия : С потерями Размер потока : 83,5 Мбайт (8%)
Видео: ProCoder 3 - конвертация видео AviSynth - обработка видео DGDecodeNV - индексирование

4,37 Gb 9 4 февраля 2016 12:16 Мы – Миллеры / Were the Millers (2013) DVD9.torrent

8343 Кбит/сек
Аудио 1: AC3 5.1, 448 Кбит/сек [Русский - дублированный]
Аудио 2: AC3 5.1, 448 Кбит/сек [Украинский - дублированный]
Аудио 3: AC3 5.1, 448 Кбит/сек [Английский - оригинал]
Видео: Идентификатор : 224 (0xE0) Формат : MPEG V >Аудио #1: Идентификатор : 189 (0xBD)-128 (0x80) Формат : AC-3 Формат/Информация : Audio Coding 3 Расширение режима : CM (complete main) Параметр Endianness формата : Big Режим смешивания : DVD-Video Продолжительность : 14 м. Вид битрейта : Постоянный Битрейт : 448 Кбит/сек Каналы : 6 каналов Расположение каналов : Front: L C R, Side: L R, LFE Частота : 48,0 КГц Битовая глубина : 16 бит Метод сжатия : С потерями Размер потока : 46,4 Мбайт (5%)
Аудио #2: Идентификатор : 189 (0xBD)-129 (0x81) Формат : AC-3 Формат/Информация : Audio Coding 3 Расширение режима : CM (complete main) Параметр Endianness формата : Big Режим смешивания : DVD-Video Продолжительность : 14 м. Вид битрейта : Постоянный Битрейт : 448 Кбит/сек Каналы : 6 каналов Расположение каналов : Front: L C R, Side: L R, LFE Частота : 48,0 КГц Битовая глубина : 16 бит Метод сжатия : С потерями Размер потока : 46,4 Мбайт (5%)
Аудио #3: Идентификатор : 189 (0xBD)-130 (0x82) Формат : AC-3 Формат/Информация : Audio Coding 3 Расширение режима : CM (complete main) Параметр Endianness формата : Big Режим смешивания : DVD-Video Продолжительность : 14 м. Вид битрейта : Постоянный Битрейт : 448 Кбит/сек Каналы : 6 каналов Расположение каналов : Front: L C R, Side: L R, LFE Частота : 48,0 КГц Битовая глубина : 16 бит Метод сжатия : С потерями Размер потока : 46,4 Мбайт (5%)
Видео: ProCoder 3 - конвертация видео AviSynth - обработка видео DGDecodeNV - индексирование

7,6 Gb 4 4 февраля 2016 12:16 Мы – Миллеры / Were the Millers (2013) DVD 9 | Extended | P, A.torrent

7534 kbps avg
Звук: Русский AC3, 6ch, 384 kbps [BaibaKo] Русский DTS, 6 ch, 768 kbps [Д. Есарев] Русский AC3, 6ch, 384 kbps [А. Карповский] Английский AC3, 6ch, 384 kbps
Субтитры: Русские, Английские

Самое смешное видео смотреть бесплатно
Роды дома видео смотреть бесплатно
Создать онлайн слайд шоу видео бесплатно
Торжественная музыка для перерезания ленточки скачать бесплатно
Скачать клипы таджикские бесплатно видео