Скрипты интернет магазина / Скачать отбросы 2 сезон торрент mp4

Скачать отбросы 2 сезон торрент mp4

Гость " 21 апр 2014, 22:29

  • Скачать отбросы 2 сезон торрент mp4 I

Русское название: Отбросы (3 сезона)
Оригинальное название: Misfits
Год выпуска: 2009-2011
Жанр: Комедия, Фантастика

ВНИМАНИЕ! В Фильме присутствует ненормативная лексика! 16+

Описание фильма:
Пятерых неудачников, трудящихся на общественных работах, во время разразившегося шторма поражает молнией, после чего они замечают, что с ними что-то не так. Жесткая Келли (Лорен Соча) внезапно начала слышать мысли людей, пристыженный спортивный герой Кёртис (Нейтан Стюарт-Джарретт) обнаруживает, что у него есть способность повернуть время вспять, когда он о чем-либо сожалеет, тусовщица Алиша (Антония Томас) может вызывать у человека сексуальное безумство одним прикосновением. Даже крайне застенчивый Саймон (Иван Реон) может сделать себя невидимым, когда он чувствует, что его игнорируют окружающие, и именно этот факт не дает покоя самоуверенному Нейтану (Роберт Шиэн), который в будущем поймёт что он бессмертный. Вместо восхищения герои постепенно понимают, что все эти новые сверхспособности, которые им не особо то были и нужны, не дар свыше, а тяжелая ноша, приносящая душевную боль в их и так не очень успешные жизни.

Режиссер: Том Грин, Том Харпер
Актеры: Иван Реон, Лорен Соча, Натан Стюарт-Джарретт, Антония Томас, Роберт Шиэн

Продолжительность:
1 сезон 6 серий по 45 минут
2 сезон 7 серий по 45 минут
3 сезон 8 серий по 45 минут
Перевод: Двуголосый закадровый
Автор перевода:

Дата мировой премьеры: 12 ноября 2009
Дата российской премьеры: 30 октября 2010
Дата выхода DVD релиза: 28 апреля 2011

Видеокодек: MPEG-4 AVC/H.264
Битрейт видео:

1 117 Kbps
Размер кадра: 320х240
Качество видео: DVDRip
Аудиокодек: AAC
Битрейт аудио: 128kb/s

General
Complete name : E:\ФИЛЬМЫ\МР4 Релизы\Misfits\1 сезон\Misfits.s01.e01.mp4
Format : MPEG-4
Format profile : Base Media / Version 2
Codec ID : mp42
File size : 475 MiB
Duration : 45mn 31s
Overall bit rate : 1 458 Kbps
Encoded date : UTC 2012-01-25 12:52:17
Tagged date : UTC 2012-01-25 13:26:36

Video
ID : 1
Format : MPEG-4 Visual
Format profile :
Format settings, BVOP : No
Format settings, QPel : No
Format settings, GMC : No warppoints
Format settings, Matrix : Default (H.263)
Codec ID : 20
Duration : 45mn 31s
Bit rate mode : Constant
Bit rate : 1 329 Kbps
Width : 320 pixels
Height : 240 pixels
Display aspect ratio : 4:3
Frame rate mode : Variable
Frame rate : 15.000 fps
Minimum frame rate : 14.998 fps
Maximum frame rate : 15.003 fps
Color space : YUV
Chroma subsampling : 4:2:0
Bit depth : 8 bits
Scan type : Progressive
Compression mode : Lossy
Bits/(Pixel*Frame) : 1.153
Stream size : 433 MiB (91%)
Language : English
Encoded date : UTC 2012-01-25 12:52:18
Tagged date : UTC 2012-01-25 13:26:36

Audio
ID : 2
Format : AAC
Format/Info : Advanced Audio Codec
Format profile : LC
Codec ID : 40
Duration : 45mn 31s
Bit rate mode : Constant
Nominal bit rate : 128 Kbps
Channel(s) : 2 channels
Channel positions : Front: L R
Sampling rate : 44.1 KHz
Compression mode : Lossy
Language : English
Encoded date : UTC 2012-01-25 12:52:18
Tagged date : UTC 2012-01-25 13:26:36
Material_Duration : 2731015
Material_StreamSize : 43674603

General
Complete name : E:\ФИЛЬМЫ\МР4 Релизы\Misfits\2 сезон\Misfits.s02.e01.mp4
Format : MPEG-4
Format profile : Base Media / Version 2
Codec ID : mp42
File size : 508 MiB
Duration : 48mn 48s
Overall bit rate : 1 455 Kbps
Encoded date : UTC 2012-01-25 18:09:18
Tagged date : UTC 2012-01-25 18:42:36

Video
ID : 1
Format : MPEG-4 Visual
Format profile :
Format settings, BVOP : No
Format settings, QPel : No
Format settings, GMC : No warppoints
Format settings, Matrix : Default (H.263)
Codec ID : 20
Duration : 48mn 48s
Bit rate mode : Constant
Bit rate : 1 325 Kbps
Width : 320 pixels
Height : 240 pixels
Display aspect ratio : 4:3
Frame rate mode : Variable
Frame rate : 15.000 fps
Minimum frame rate : 14.998 fps
Maximum frame rate : 15.003 fps
Color space : YUV
Chroma subsampling : 4:2:0
Bit depth : 8 bits
Scan type : Progressive
Compression mode : Lossy
Bits/(Pixel*Frame) : 1.150
Stream size : 463 MiB (91%)
Language : English
Encoded date : UTC 2012-01-25 18:09:18
Tagged date : UTC 2012-01-25 18:42:36

Audio
ID : 2
Format : AAC
Format/Info : Advanced Audio Codec
Format profile : LC
Codec ID : 40
Duration : 48mn 48s
Bit rate mode : Constant
Nominal bit rate : 128 Kbps
Channel(s) : 2 channels
Channel positions : Front: L R
Sampling rate : 44.1 KHz
Compression mode : Lossy
Language : English
Encoded date : UTC 2012-01-25 18:09:18
Tagged date : UTC 2012-01-25 18:42:36
Material_Duration : 2928269
Material_StreamSize : 46846902

General
Complete name : E:\ФИЛЬМЫ\МР4 Релизы\Misfits\3 сезон\Misfits.s03.e01.mp4
Format : MPEG-4
Format profile : Base Media / Version 2
Codec ID : mp42
File size : 504 MiB
Duration : 47mn 16s
Overall bit rate : 1 489 Kbps
Encoded date : UTC 2012-01-25 09:44:42
Tagged date : UTC 2012-01-25 10:40:18

Video
ID : 1
Format : MPEG-4 Visual
Format profile :
Format settings, BVOP : No
Format settings, QPel : No
Format settings, GMC : No warppoints
Format settings, Matrix : Default (H.263)
Codec ID : 20
Duration : 47mn 15s
Bit rate mode : Constant
Bit rate : 1 360 Kbps
Width : 320 pixels
Height : 240 pixels
Display aspect ratio : 4:3
Frame rate mode : Variable
Frame rate : 15.000 fps
Minimum frame rate : 14.998 fps
Maximum frame rate : 15.003 fps
Color space : YUV
Chroma subsampling : 4:2:0
Bit depth : 8 bits
Scan type : Progressive
Compression mode : Lossy
Bits/(Pixel*Frame) : 1.181
Stream size : 460 MiB (91%)
Language : English
Encoded date : UTC 2012-01-25 09:44:42
Tagged date : UTC 2012-01-25 10:40:17

Audio
ID : 2
Format : AAC
Format/Info : Advanced Audio Codec
Format profile : LC
Codec ID : 40
Duration : 47mn 16s
Bit rate mode : Constant
Nominal bit rate : 127 Kbps
Channel(s) : 2 channels
Channel positions : Front: L R
Sampling rate : 44.1 KHz
Compression mode : Lossy
Language : English
Encoded date : UTC 2012-01-25 09:44:42
Tagged date : UTC 2012-01-25 10:40:18
Material_Duration : 2835969
Material_StreamSize : 45155247

Скачать бесплатно программу для изменения отсканированных документов
Канер тестирование программного обеспечения скачать бесплатно
Секс с собакой онлайн видео бесплатно
Скачать бесплатно исламское видео бесплатно
Как скачать мультики в youtube